Лицензия

MVO

1

1 сезон

Лицензия

Лицензия

13

MVO

1 сезон

Deluxe Edition

pack

Рекомендуем

30

Repack

ВАЖНО

ВАЖНО

Ghostwire

RePack

jed

RePack

fifa19

RePack

RDR2

RePack

NEED FOR SPEED™ PAYBACK

RePack

Кинопоиск HD

 Острые козырьки 6 сезон

6 сезон

FAR CRY 6

RePack

Лицензия

MVO

1

1 сезон

1 сезон

Лицензия

  

Гарри Поттер и Дары смерти: Часть 2 / Harry Potter and the Deathly Hallows: Part 2 (Дэвид Йэтс) [2011 г., Фэнтези, приключения, экранизация, HybridRip 720p / 60 FPS , Дубляж] (IMAX) от R.G. HD-Films

Гарри Поттер и Дары смерти: Часть 2 через торрент 00l3.vidak.icu

Раздают: 3 [ 0 KB/s ]
Размер: 5.85 GB | Добавлен: 4 д. назад | Торрент скачан:8 раз
Смотреть онлайн Гарри Поттер и Дары смерти: Часть 2 | Скачать   

20-09-2022 09:28 Гарри Поттер и Дары смерти: Часть 2 Скачать торрент  

Гарри Поттер и Дары смерти: Часть 2 / Harry Potter and the Deathly Hallows: Part 2
Год выпуска: 2011
Страна: США, Великобритания
Жанр: Фэнтези, приключения, экранизация
Продолжительность: 02:10:17
Перевод: Дубляж
Субтитры: Русские (Forced вшитые, full), английские

Режиссер: Дэвид Йэтс

rating

В ролях: Дэниэл Рэдклифф, Руперт Гринт, Эмма Уотсон, Рэйф Файнс, Алан Рикман, Хелена Бонем Картер, Том Фелтон, Гари Олдман, Майкл Гэмбон, Мэгги Смит

Описание: В грандиозной последней главе битва между добрыми и злыми силами мира волшебников перерастает во всеобщую войну. Ставки ещё никогда не были так высоки, а поиск убежища - столь сложен. И быть может именно Гарри Поттеру придется пожертвовать всем в финальном сражении с Волан-де-Мортом. Способен ли наш герой спасти мир? И всё закончится здесь.

Доп. информация: Видеоряд смонтирован с помощью AutoOverlay AviSynth plugin на основе BD EUR и WEB-DL с амазона с целью получить наибольшее наполнение кадра. В видеоряд включены все возможные IMAX-сцены и исключены все сцены с полной обрезкой кадра по бокам. За создание гибрида спасибо random0

Качество: HybridRip 720p / 60 FPS
Формат: MKV
Видео кодек: H.264
Аудио кодек: AC3
Видео: x264, 1280 x 720 ( 16:9 ), 6042 kbps, 60,000 fps, ( 0.109 bpp)
Аудио#1: Русский, AC-3, 48.0 KHz, 6 ch, 384 Kbps
Релиз от: Автор рипа: slaventi-69
x264 [info]: using cpu capabilities: MMX2 SSE2Fast SSSE3 SSE4.2 AVX AVX2 FMA3 LZCNT BMI1 BMI2
x264 [info]: profile High, level 4.1
x264 [info]: frame I:1688 Avg QP:13.05 size:108070
x264 [info]: frame P:111888 Avg QP:14.28 size: 31231
x264 [info]: frame B:355492 Avg QP:16.61 size: 6267
x264 [info]: consecutive B-frames: 1.8% 4.7% 10.9% 11.6% 51.4% 19.7%


Общее
Уникальный идентификатор : 309074858745208114187192821726222948952 (0xE885A70D9CE1C01DBD7E464F81CB1A58)
Полное имя : G:\60 FPS\Harry.Potter.and.the.Deathly.Hallows_Part.2.(2011).HybridRip.720p.(60 Fps).(IMAX).mkv
Формат : Matroska
Версия формата : Version 4
Размер файла : 5,85 Гбайт
Продолжительность : 2 ч. 10 м.
Общий поток : 6430 Кбит/сек
Название фильма : Гарри Поттер и Дары смерти: Часть 2 / Harry Potter and the Deathly Hallows: Part 2 (2011) HybridRip 720p (60 Fps) | IMAX
Дата кодирования : UTC 2022-09-20 08:56:46
Программа кодирования : mkvmerge v69.0.0 ('Day And Age') 64-bit
Библиотека кодирования : libebml v1.4.2 + libmatroska v1.6.4

Видео
Идентификатор : 1
Формат : AVC
Формат/Информация : Advanced Video Codec
Профиль формата : [email protected]
Настройки формата : CABAC / 9 Ref Frames
Параметр CABAC формата : Да
Параметр RefFrames формата : 9 кадров
Идентификатор кодека : V_MPEG4/ISO/AVC
Продолжительность : 2 ч. 10 м.
Битрейт : 6042 Кбит/сек
Ширина : 1280 пикселей
Высота : 720 пикселей
Соотношение сторон : 16:9
Режим частоты кадров : Постоянный
Частота кадров : 60,000 кадров/сек
Цветовое пространство : YUV
Субдискретизация насыщенности : 4:2:0
Битовая глубина : 8 бит
Тип развёртки : Прогрессивная
Бит/(Пиксели*Кадры) : 0.109
Размер потока : 5,50 Гбайт (94%)
Заголовок : slaventi-69 ( R.G. HD-Films | 60 fps )
Библиотека кодирования : x264 core 130 r2273 b3065e6
Настройки программы : cabac=1 / ref=9 / deblock=1:-3:-3 / analyse=0x3:0x133 / me=umh / subme=9 / psy=1 / psy_rd=1.00:0.00 / mixed_ref=1 / me_range=32 / chroma_me=1 / trellis=2 / 8x8dct=1 / cqm=0 / deadzone=21,11 / fast_pskip=0 / chroma_qp_offset=-2 / threads=8 / lookahead_threads=4 / sliced_threads=0 / nr=0 / decimate=1 / interlaced=0 / bluray_compat=0 / constrained_intra=0 / bframes=5 / b_pyramid=2 / b_adapt=2 / b_bias=0 / direct=1 / weightb=1 / open_gop=0 / weightp=2 / keyint=600 / keyint_min=23 / scenecut=40 / intra_refresh=0 / rc=crf / mbtree=0 / crf=15.7 / qcomp=0.60 / qpmin=0 / qpmax=69 / qpstep=4 / ip_ratio=1.40 / pb_ratio=1.30 / aq=1:1.00
Язык : English
Default : Да
Forced : Нет

Аудио
Идентификатор : 2
Формат : AC-3
Формат/Информация : Audio Coding 3
Коммерческое название : Dolby Digital
Идентификатор кодека : A_AC3
Продолжительность : 2 ч. 10 м.
Вид битрейта : Постоянный
Битрейт : 384 Кбит/сек
Каналы : 6 каналов
Channel layout : L R C LFE Ls Rs
Частота : 48,0 КГц
Частота кадров : 31,250 кадров/сек (1536 SPF)
Битовая глубина : 16 бит
Метод сжатия : С потерями
Размер потока : 358 Мбайт (6%)
Заголовок : Dub
Язык : Russian
ServiceKind/String : Complete Main
Default : Да
Forced : Нет

Текст #1
Идентификатор : 3
Формат : UTF-8
Идентификатор кодека : S_TEXT/UTF8
Идентификатор кодека/Информация : UTF-8 Plain Text
Продолжительность : 1 ч. 59 м.
Битрейт : 48 бит/сек
ElementCount : 1040
Размер потока : 42,9 Кбайт (0%)
Заголовок : Full 1
Язык : Russian
Default : Нет
Forced : Нет

Текст #2
Идентификатор : 4
Формат : UTF-8
Идентификатор кодека : S_TEXT/UTF8
Идентификатор кодека/Информация : UTF-8 Plain Text
Продолжительность : 1 ч. 56 м.
Битрейт : 54 бит/сек
ElementCount : 966
Размер потока : 46,8 Кбайт (0%)
Заголовок : Full 2
Язык : Russian
Default : Нет
Forced : Нет

Текст #3
Идентификатор : 5
Формат : UTF-8
Идентификатор кодека : S_TEXT/UTF8
Идентификатор кодека/Информация : UTF-8 Plain Text
Продолжительность : 1 ч. 54 м.
Битрейт : 34 бит/сек
ElementCount : 924
Размер потока : 28,6 Кбайт (0%)
Язык : English
Default : Нет
Forced : Нет

Просьба к переливающим на другие сайты, в оформлении указывайте пожалуйста авторство группы R.G. HD-Films



Скачать Гарри Поттер и Дары смерти: Часть 2 через торрент https://i120.fastpic.org/big/2022/0920/0b/b9f4ee6ced002d6835a6a45a14fafe0b.jpg Скачать, смотреть онлайн Гарри Поттер и Дары смерти: Часть 2 бесплантно в хорошем качестве Описание: В грандиозной последней главе битва между добрыми и злыми силами мира волшебников перерастает во всеобщую войну. Ставки ещё ... 5 10 1
Торрент: Зарегистрирован [2022-09-20 09:28] · скачан: 8 раз
Статус: √ проверено
Размер: 5.85 GB
Как cкачать? Как скачать Гарри Поттер и Дары смерти: Часть 2 через торрент | UTorrent

% Раздел Тема Автор DL S | L
3D Фильмы [ 22.86 GB ] Гарри Поттер и Дары смерти: Часть II / Harry Potter and the Deathly Hallows: Part 2 | Лицензия | BDRip, Дубляж Лицензия serega768 Скачать
2 | 0
Фильмы [HD 720p, 1080p] (Хороший звук DUB, MVO) [ 7.76 GB ] Гарри Поттер и дары смерти: Часть 2 / Harry Potter and the Deathly Hallows: Part 2 | Дубляж + Оригинал | 1080p, Дубляж + Оригинал Бумер Скачать
3 | 0
Фильмы 2011 [ 2.9 GB ] Гарри Поттер и Дары смерти: Часть 2 / Harry Potter and the Deathly Hallows: Part 2 | | BDRip Anonymous Скачать
1 | 0
Фильмы 2011 [ 2.05 GB ] Гарри Поттер и Дары смерти: Часть II / Harry Potter and the Deathly Hallows: Part 2 | | HDRip shuller Скачать
1 | 0
Фильмы [HD 720p, 1080p] (Хороший звук DUB, MVO) [ 11.28 GB ] Гарри Поттер и Дары смерти: Часть II / Harry Potter and the Deathly Hallows: Part 2 | | 1080p diletant Скачать
1 | 0
3D Фильмы [ 11.25 GB ] Гарри Поттер и Дары смерти: Часть II / Harry Potter and the Deathly Hallows: Part 2 | Гарри Поттер и Дары смерти: Часть II / Harry Potter and the Deathly Hallows: Part 2 | BDRip/вертикальная анаморфная стереопара marik05 Скачать
1 | 0
Фильмы (DVD фильмы) [ 10.38 GB ] Гарри Поттер и Дары смерти: Часть II / Harry Potter and the Deathly Hallows: Part 2 | | Гарри Поттер и Дары смерти: Часть II / Harry Potter and the Deathly Hallows: Part 2 (Дэвид Йэтс / David Yates voovaz Скачать
1 | 0

28-11-2019 20:33  

Отключить вcю реклaмy на сайте

    Дорогой пользователь! Огромная просьба, поблагодарите релизера, оцените раздачу и оставьте свои комментарий, если Вы скачали Гарри Поттер и Дары смерти: Часть 2 через торрент бесплатно!!
    Комментировать посты могут только пользователи прошедшие не сложную регистрацию
    Показать сообщения:    


    Гарри Поттер и Дары смерти: Часть 2 через торрент
    Скачать бесплатно Гарри Поттер и Дары смерти: Часть 2
    Гарри Поттер и Дары смерти: Часть 2 скачать торрент
    Гарри Поттер и Дары смерти: Часть 2 смотреть онлайн
    Cкачать фильм Гарри Поттер и Дары смерти: Часть 2 бесплатно
    Гарри Поттер и Дары смерти: Часть 2 скачать торрент в хорошем качестве
    Гарри Поттер и Дары смерти: Часть 2 смотреть онлайн бесплатно в хорошем качестве
    Вы не можете начинать темы
    Вы не можете отвечать на сообщения
    Вы не можете редактировать свои сообщения
    Вы не можете удалять свои сообщения
    Вы не можете голосовать в опросах
    Вы не можете прикреплять файлы к сообщениям
    Вы можете скачивать файлы