Лицензия

MVO

1

1 сезон

Лицензия

Лицензия

13

MVO

1 сезон

Deluxe Edition

pack

Рекомендуем

30

Repack

ВАЖНО

ВАЖНО

Ghostwire

RePack

jed

RePack

fifa19

RePack

RDR2

RePack

NEED FOR SPEED™ PAYBACK

RePack

Кинопоиск HD

 Острые козырьки 6 сезон

6 сезон

FAR CRY 6

RePack

Лицензия

MVO

1

1 сезон

1 сезон

Лицензия

  

Гранд Тур / The Grand Tour / Сезон: 5 / Серии: 1- из 4 (Фил Чурчуорд, Брайан Клейн, Кит Линч Робинсон) [2022, Авто-шоу, WEB-DL 1080p] MVO [AlexFilm]

Гранд Тур через торрент 00l3.vidak.icu

Раздают: 14 [ 2 MB/s ]
Размер: 7.46 GB | Добавлен: 6 д. назад | Торрент скачан:46 раз
Смотреть онлайн Гранд Тур | Скачать   

16-09-2022 02:04 Гранд Тур Скачать торрент  

Гранд Тур | The Grand Tour
Год выхода: 2022
Страна: Великобритания, США
Студия: Amazon Studios
Жанр: Автопередача
Продолжительность: ~01:40:00 серия
Перевод: Профессиональный (многоголосый закадровый) | AlexFilm
Субтитры: Русские (Forced, Full |Amazon|, английские (Full, SDH)

Режиссер: Фил Чурчуорд, Брайан Клейн, Кит Линч Робинсон

В ролях: Джереми Кларксон, Ричард Хаммонд, Джеймс Мэй, Майк Скиннер, Жером Д’Амброзио, Арми Хаммер, Джереми Реннер, Кэрол Вордерман, Саймон Пегг, Дэвид Хэсселхофф, Пэрис Хилтон, Кифер Сазерленд

Описание: "Гранд Тур" — это новое автомобильное телешоу, созданное бывшими ведущими Top Gear — Джереми Кларксоном, Ричардом Хаммондом и Джеймсом Мэйем. Зрителей ждут автомобильные обзоры, приключения по всему миру, встречи со знаменитостями и юмор, который является непременным атрибутом каждого выпуска.

rating

Качество видео: WEB-DL 1080p
Формат: MKV

Видео: MPEG-4 AVC, 1920x1080 (16:9), 25 fps, ~9300 Kbps
Аудио №1: AC3, 48,0 kHz, 6 ch, 384 kbps | AlexFilm
Аудио №2: AC3, 48,0 kHz, 6 ch, 384 kbps | Original
Аудио №3: EAC3, 48,0 kHz, 6 ch, 640 kbps | Original


скриншот  скриншот  скриншот  скриншот  
Complete name : D:The_Grand_Tour_(s05)_AlexFilm_1080pThe.Grand.Tour.2022.S05E01.A.Scandi.Flick.1080p.AMZN.WEB-DL.DDP5.1.x264-FLUX_EniaHD.mkv
Format : Matroska
Format version : Version 4
File size : 7.46 GiB
Duration : 1 h 39 min
Overall bit rate : 10.7 Mb/s
Encoded date : UTC 2022-09-17 12:40:42
Writing application : mkvmerge v58.0.0 ('Supper's Ready') 64-bit
Writing library : libebml v1.4.2 + libmatroska v1.6.4

Video
ID : 1
Format : AVC
Format/Info : Advanced Video Codec
Format profile : [email protected]
Format settings : CABAC / 4 Ref Frames
Format settings, CABAC : Yes
Format settings, Reference : 4 frames
Codec ID : V_MPEG4/ISO/AVC
Duration : 1 h 39 min
Bit rate mode : Constant
Bit rate : 9 289 kb/s
Nominal bit rate : 10 000 kb/s
Width : 1 920 pixels
Height : 1 080 pixels
Display aspect ratio : 16:9
Frame rate mode : Constant
Frame rate : 25.000 FPS
Color space : YUV
Chroma subsampling : 4:2:0
Bit depth : 8 bits
Scan type : Progressive
Bits/(Pixel*Frame) : 0.179
Stream size : 6.48 GiB (87%)
Title : Release by EniaHD
Default : No
Forced : No
Color range : Limited
Color primaries : BT.709
Transfer characteristics : BT.709
Matrix coefficients : BT.709

Audio #1
ID : 2
Format : AC-3
Format/Info : Audio Coding 3
Commercial name : Dolby Digital
Codec ID : A_AC3
Duration : 1 h 39 min
Bit rate mode : Constant
Bit rate : 384 kb/s
Channel(s) : 6 channels
Channel layout : L R C LFE Ls Rs
Sampling rate : 48.0 kHz
Frame rate : 31.250 FPS (1536 SPF)
Compression mode : Lossy
Stream size : 274 MiB (4%)
Title : AlexFilm
Language : Russian
Service kind : Complete Main
Default : Yes
Forced : No

Audio #2
ID : 3
Format : AC-3
Format/Info : Audio Coding 3
Commercial name : Dolby Digital
Codec ID : A_AC3
Duration : 1 h 39 min
Bit rate mode : Constant
Bit rate : 384 kb/s
Channel(s) : 6 channels
Channel layout : L R C LFE Ls Rs
Sampling rate : 48.0 kHz
Frame rate : 31.250 FPS (1536 SPF)
Compression mode : Lossy
Stream size : 274 MiB (4%)
Language : English
Service kind : Complete Main
Default : No
Forced : No

Audio #3
ID : 4
Format : E-AC-3
Format/Info : Enhanced AC-3
Commercial name : Dolby Digital Plus
Codec ID : A_EAC3
Duration : 1 h 39 min
Bit rate mode : Constant
Bit rate : 640 kb/s
Channel(s) : 6 channels
Channel layout : L R C LFE Ls Rs
Sampling rate : 48.0 kHz
Frame rate : 31.250 FPS (1536 SPF)
Compression mode : Lossy
Stream size : 457 MiB (6%)
Language : English
Service kind : Complete Main
Default : No
Forced : No

Text #1
ID : 5
Format : UTF-8
Codec ID : S_TEXT/UTF8
Codec ID/Info : UTF-8 Plain Text
Duration : 21 min 2 s
Bit rate : 1 b/s
Count of elements : 4
Stream size : 173 Bytes (0%)
Title : Forced
Language : Russian
Default : Yes
Forced : No

Text #2
ID : 6
Format : UTF-8
Codec ID : S_TEXT/UTF8
Codec ID/Info : UTF-8 Plain Text
Duration : 1 h 37 min
Bit rate : 109 b/s
Count of elements : 1479
Stream size : 78.7 KiB (0%)
Title : Full |Amazon|
Language : Russian
Default : No
Forced : No

Text #3
ID : 7
Format : UTF-8
Codec ID : S_TEXT/UTF8
Codec ID/Info : UTF-8 Plain Text
Duration : 1 h 37 min
Bit rate : 79 b/s
Count of elements : 1640
Stream size : 56.9 KiB (0%)
Title : Full
Language : English
Default : No
Forced : No

Text #4
ID : 8
Format : UTF-8
Codec ID : S_TEXT/UTF8
Codec ID/Info : UTF-8 Plain Text
Duration : 1 h 38 min
Bit rate : 92 b/s
Count of elements : 1919
Stream size : 66.7 KiB (0%)
Title : SDH
Language : English
Default : No
Forced : No

Menu
00:00:00.000 : Amazon Original
00:00:07.000 : Scene 2
00:01:40.000 : Title Sequence
00:01:49.000 : Opening Credits
00:02:14.000 : Scene 5
00:05:25.000 : Scene 6
00:07:31.000 : Scene 7
00:08:03.000 : Scene 8
00:10:13.000 : Scene 9
00:13:06.000 : Scene 10
00:18:03.000 : Scene 11
00:19:12.000 : Scene 12
00:20:22.000 : Scene 13
00:24:49.000 : Scene 14
00:28:09.000 : Scene 15
00:29:34.000 : Scene 16
00:30:16.000 : Scene 17
00:32:28.000 : Scene 18
00:32:52.000 : Scene 19
00:34:36.000 : Scene 20
00:37:17.000 : Scene 21
00:40:36.000 : Scene 22
00:42:56.000 : Scene 23
00:44:06.000 : Scene 24
00:45:56.000 : Scene 25
00:47:13.000 : Scene 26
00:48:50.000 : Scene 27
00:52:24.000 : Scene 28
00:54:21.000 : Scene 29
00:55:10.000 : Scene 30
00:58:48.000 : Scene 31
01:01:04.000 : Scene 32
01:02:59.000 : Scene 33
01:07:55.000 : Scene 34
01:08:39.000 : Scene 35
01:10:06.000 : Scene 36
01:10:50.000 : Scene 37
01:13:15.000 : Scene 38
01:14:35.000 : Scene 39
01:15:42.000 : Scene 40
01:17:09.000 : Scene 41
01:18:26.000 : Scene 42
01:20:31.000 : Scene 43
01:23:51.000 : Scene 44
01:25:45.000 : Scene 45
01:27:33.000 : Scene 46
01:28:52.000 : Scene 47
01:29:57.000 : Scene 48
01:31:42.000 : Scene 49
01:36:19.000 : Scene 50
01:38:31.000 : End Credits
Внимание! Раздача ведётся путём добавления новых серий; при каждом добавлении создаётся новый торрент. Чтобы начать докачку новой серии, пользователям необходимо сделать следующее:
(1) остановить скачивание,
(2) удалить старый торрент у себя из клиента (старые серии удалять не надо),
(3) скачать новый торрент и запустить его у себя в клиенте вместо старого, при этом указать клиенту путь в старую папку куда и должно происходить скачивание новых серий.
Ваш клиент при этом должен произвести хеширование (проверку) старой папки (если не производит сам - помогите ему сделать это), и будет докачивать только те серии которых у вас ещё нет. Старые серии при этом не удаляются, а продолжают раздаваться!
Eсли вы уже удалили старые серии, то предотвратить повторную закачку старых серий можно, отжав галочку в соответствующих местах при запуске нового торрента. По возможности, желательно не удалять старые серии как можно дольше чтобы релизёр не столько продолжал раздавать старые серии, а смог сконцентрироваться на новых.



Скачать Гранд Тур через торрент https://i3-imageban-ru.translate.goog/out/2022/09/16/074f6a4bf04b6ca0063e917f2bfb7093.png Скачать, смотреть онлайн Гранд Тур бесплантно в хорошем качестве Описание: "Гранд Тур" — это новое автомобильное телешоу, созданное бывшими ведущими Top Gear — Джереми Кларксоном, Ричардом Хаммондом и ... 10 10 6
Торрент: Зарегистрирован [2022-09-17 20:50] · скачан: 46 раз
Статус: √ проверено
Размер: 7.46 GB
Как cкачать? Как скачать Гранд Тур через торрент | UTorrent

% Раздел Тема Автор DL S | L
Автоспорт [ 12.69 GB ] Гранд Тур / The Grand Tour / Сезон: 4 / Серии: 1-4 из 4 | MVO | 720p bober100 Скачать
4 | 6
Автоспорт [ 6.63 GB ] Гранд Тур / The Grand Tour / Сезон: 4 / Серии: 1-4 из 4 | MVO | DLRip bober100 Скачать
2 | 2
Автоспорт [ 17.89 GB ] Гранд Тур / The Grand Tour / Сезоны: 1-2 / Серии: 1-24 из 24 | MVO | WEBRip killermax2013 Скачать
1 | 0

28-11-2019 20:33  

Отключить вcю реклaмy на сайте

    Дорогой пользователь! Огромная просьба, поблагодарите релизера, оцените раздачу и оставьте свои комментарий, если Вы скачали Гранд Тур через торрент бесплатно!!
    Комментировать посты могут только пользователи прошедшие не сложную регистрацию
    Показать сообщения:    


    Гранд Тур через торрент
    Скачать бесплатно Гранд Тур
    Гранд Тур скачать торрент
    Гранд Тур смотреть онлайн
    Cкачать фильм Гранд Тур бесплатно
    Гранд Тур скачать торрент в хорошем качестве
    Гранд Тур смотреть онлайн бесплатно в хорошем качестве
    Вы не можете начинать темы
    Вы не можете отвечать на сообщения
    Вы не можете редактировать свои сообщения
    Вы не можете удалять свои сообщения
    Вы не можете голосовать в опросах
    Вы не можете прикреплять файлы к сообщениям
    Вы можете скачивать файлы