Лицензия

MVO

1

1 сезон

Лицензия

Лицензия

13

MVO

1 сезон

Deluxe Edition

pack

Рекомендуем

30

Repack

ВАЖНО

ВАЖНО

Ghostwire

RePack

jed

RePack

fifa19

RePack

RDR2

RePack

NEED FOR SPEED™ PAYBACK

RePack

Кинопоиск HD

 Острые козырьки 6 сезон

6 сезон

FAR CRY 6

RePack

Лицензия

MVO

1

1 сезон

1 сезон

Лицензия

  

Контейнер / Сезон: 2 / Серии: 1-3 из 8 (Алексей Ляпичев) [2022, Драма, триллер, WEBRip-AVC, (Версия 18+)]

Контейнер через торрент 00l3.vidak.icu

Раздают: 7 [ 389 KB/s ] Качают: 5 [ 0 KB/s ]
Размер: 1.9 GB | Добавлен: 1 д. 19 ч. назад | Торрент скачан:7 раз
Смотреть онлайн Контейнер | Скачать   

16-09-2022 01:44 Контейнер Скачать торрент  

Контейнер 2
Год выпуска: 2022
Страна: Россия
Студия: START Studio
Жанр: Драма, триллер
Продолжительность: ~ 00:51:00 серия
Перевод: Не требуется
Субтитры: отсутствуют
Версия 18+.

Режиссер: Алексей Ляпичев



В ролях: Оксана Акиньшина, Мария Фомина, Филипп Янковский, Юлия Ауг, Мария Лобанова, Артём Быстров, Дмитрий Чеботарёв, Елизавета Шакира, Нино Кантария, Ростислав Бершауэр, Роман Васильев, Сергей Годин, Александр Аноприков

Описание: В новом сезоне суррогатная мама Саша родила ребенка, выполнила заказ и должна его оставить. Но за время знакомства и жизни в доме заказчиков, она хорошо изучила их принципы и нравы. Саша волнуется за судьбу малыша, но еще тревожнее ей за собственную дочь Аню, которая оборвала все контакты, узнав, что та, которую она всю жизнь считала своей сестрой, на самом деле, ее мать.

Качество: WEBRip-AVC
Формат: MKV

Видео: MPEG-4 AVC, ~ 1600 Кбит/с, 1024x432, 24 кадр/с
Аудио: 48.0 kHz, AC3 Dolby Digital, 2/0 (L,R) ch, ~ 192 kbps
скриншот  скриншот  скриншот  скриншот  

General
Unique ID : 204718219475814815408427949548367560079 (0x9A034B7EE511A8BCA928F3E478FCBD8F)
Complete name : F:\Контейнер.S02.(2022).WEBRip.(AVC).Files-x\01.Контейнер.(2022).WEBRip.(AVC).by.Серый1779.Files-x.mkv
Format : Matroska
Format version : Version 2
File size : 649 MiB
Duration : 50 min 37 s
Overall bit rate : 1 793 kb/s
Encoded date : UTC 2022-09-08 07:16:53
Writing application : mkvmerge v7.8.0 ('River Man') 32bit built on Apr 3 2015 12:11:22
Writing library : libebml v1.3.1 + libmatroska v1.4.2

Video
ID : 1
Format : AVC
Format/Info : Advanced Video Codec
Format profile : [email protected]
Format settings : CABAC / 9 Ref Frames
Format settings, CABAC : Yes
Format settings, RefFrames : 9 frames
Codec ID : V_MPEG4/ISO/AVC
Duration : 50 min 37 s
Bit rate : 1 600 kb/s
Width : 1 024 pixels
Height : 432 pixels
Display aspect ratio : 2.40:1
Frame rate mode : Constant
Frame rate : 24.000 FPS
Color space : YUV
Chroma subsampling : 4:2:0
Bit depth : 8 bits
Scan type : Progressive
Bits/(Pixel*Frame) : 0.151
Stream size : 567 MiB (87%)
Writing library : x264 core 146 r2538 121396c
Encoding settings : cabac=1 / ref=9 / deblock=1:-2:-1 / analyse=0x3:0x133 / me=umh / subme=9 / psy=1 / psy_rd=1.00:0.15 / mixed_ref=1 / me_range=32 / chroma_me=1 / trellis=2 / 8x8dct=1 / cqm=0 / deadzone=21,11 / fast_pskip=0 / chroma_qp_offset=-3 / threads=18 / lookahead_threads=3 / sliced_threads=0 / nr=0 / decimate=1 / interlaced=0 / bluray_compat=0 / constrained_intra=0 / bframes=9 / b_pyramid=2 / b_adapt=2 / b_bias=0 / direct=1 / weightb=1 / open_gop=0 / weightp=2 / keyint=250 / keyint_min=23 / scenecut=40 / intra_refresh=0 / rc=2pass / mbtree=0 / bitrate=1600 / ratetol=1.0 / qcomp=0.60 / qpmin=0 / qpmax=69 / qpstep=4 / cplxblur=20.0 / qblur=0.5 / ip_ratio=1.40 / pb_ratio=1.30 / aq=2:1.00
Default : Yes
Forced : No
Color range : Limited
Color primaries : BT.709
Transfer characteristics : BT.709
Matrix coefficients : BT.709

Audio
ID : 2
Format : AC-3
Format/Info : Audio Coding 3
Format settings, Endianness : Big
Codec ID : A_AC3
Duration : 50 min 37 s
Bit rate mode : Constant
Bit rate : 192 kb/s
Channel(s) : 2 channels
Channel positions : Front: L R
Sampling rate : 48.0 kHz
Frame rate : 31.250 FPS (1536 SPF)
Bit depth : 16 bits
Compression mode : Lossy
Stream size : 69.5 MiB (11%)
Service kind : Complete Main
Default : Yes
Forced : No

Внимание! Раздача ведётся путём добавления новых серий; при каждом добавлении создаётся новый торрент. Чтобы начать докачку новой серии, пользователям необходимо сделать следующее: (1) остановить скачивание, (2) удалить старый торрент у себя из клиента (старые серии удалять не надо), (3) скачать новый торрент и запустить его у себя в клиенте вместо старого, при этом указать клиенту путь в старую папку куда и должно происходить скачивание новых серий.

Ваш клиент при этом должен произвести хеширование (проверку) старой папки (если не производит сам - помогите ему сделать это), и будет докачивать только те серии которых у вас ещё нет. Старые серии при этом не удаляются, а продолжают раздаваться!

Eсли вы уже удалили старые серии, то предотвратить повторную закачку старых серий можно, отжав галочку в соответствующих местах при запуске нового торрента.



Скачать Контейнер через торрент https://i120.fastpic.org/big/2022/0908/de/690f695640a201a52f9c73e20a69c1de.jpg Скачать, смотреть онлайн Контейнер бесплантно в хорошем качестве Описание: В новом сезоне суррогатная мама Саша родила ребенка, выполнила заказ и должна его оставить. Но за время знакомства и жизни в доме ... 10 10 5
Торрент: Зарегистрирован [2022-09-22 23:38] · скачан: 7 раз
Статус: √ проверено
Размер: 1.9 GB
Как cкачать? Как скачать Контейнер через торрент | UTorrent

% Раздел Тема Автор DL S | L
Наши сериалы [ 7.09 GB ] Контейнер / Сезон: 2 / Серии: 1-3 из 8 | | 1080p, (Версия 18+ bober100 Скачать
9 | 10
Наши сериалы [ 1.71 GB ] Контейнер / Сезон: 2 / Серии: 1-3 из 8 | | WEBRip, (Версия 18+ bober100 Скачать
2 | 3

28-11-2019 20:33  

Отключить вcю реклaмy на сайте

    Дорогой пользователь! Огромная просьба, поблагодарите релизера, оцените раздачу и оставьте свои комментарий, если Вы скачали Контейнер через торрент бесплатно!!
    Комментировать посты могут только пользователи прошедшие не сложную регистрацию
    Показать сообщения:    


    Контейнер через торрент
    Скачать бесплатно Контейнер
    Контейнер скачать торрент
    Контейнер смотреть онлайн
    Cкачать фильм Контейнер бесплатно
    Контейнер скачать торрент в хорошем качестве
    Контейнер смотреть онлайн бесплатно в хорошем качестве
    Вы не можете начинать темы
    Вы не можете отвечать на сообщения
    Вы не можете редактировать свои сообщения
    Вы не можете удалять свои сообщения
    Вы не можете голосовать в опросах
    Вы не можете прикреплять файлы к сообщениям
    Вы можете скачивать файлы