Лицензия

MVO

1

1 сезон

Лицензия

Лицензия

13

MVO

1 сезон

Deluxe Edition

pack

Рекомендуем

30

Repack

ВАЖНО

ВАЖНО

Ghostwire

RePack

jed

RePack

fifa19

RePack

RDR2

RePack

NEED FOR SPEED™ PAYBACK

RePack

Кинопоиск HD

 Острые козырьки 6 сезон

6 сезон

FAR CRY 6

RePack

Лицензия

MVO

1

1 сезон

1 сезон

Лицензия

  

Рик и Морти / Rick And Morty / Сезон: 6 / Серии: 1-3 из 10 (Пит Мишелс, Брайан Ньютон, Джон Райс) [2022, Мультфильм, комедия, фантастика, WEB-DLRip 1080p] VO [Сыендук]

Рик и Морти через торрент 00l3.vidak.icu

Раздают: 15 [ 388 KB/s ] Качают: 10 [ 850 KB/s ]
Размер: 4.41 GB | Добавлен: 5 д. назад | Торрент скачан:25 раз
Смотреть онлайн Рик и Морти | Скачать   

12-09-2022 17:33 Рик и Морти Скачать торрент  

✘ Рик и Морти | Rick and Morty ✘
«Science makes sense, family doesn't»

Страна: США
Студия: Harmonius Claptrap, Starburns Industries, Williams Street
Жанр: Мультфильм, комедия, фантастика
Продолжительность серии: 00:22:00 серия
Год выпуска: 2022
Перевод: Профессиональный (одноголосый) | Сыендук
Субтитры: Английские (Full, SDH))

Режиссёр: Пит Мишелс, Брайан Ньютон, Джон Райс

В ролях: Джастин Ройланд, Крис Парнелл, Спенсер Грэммер, Сара Чок, Кари Уолгрен, Том Кенни, Райан Ридли, Морис ЛаМарш, Брэндон Джонсон, Дэн Хармон

Описание: Анимационное шоу для взрослых, в лучших традициях интеллектуального абсурда. Морти – самый обычный 14-летний подросток, который ссорится с учителями, мечтает о девочках и страдает от школьных хулиганов. Единственное, что делает его особенным, это его дед Рик – гениальный изобретатель и постоянно рыгающий алкоголик. В их мире все по фен-шую: инопланетяне в гараже, коты Шредингера в космосе и мутировавшая бактерия в ведре с вишневым мороженым. Их хобби — путешествовать по галактикам, тусоваться с местными парнями и иногда, по чистой случайности, развязывать инопланетные войны.

rating

Качество: WEB-DLRip 1080p
Формат: MKV

Видео: 1920x1080 at 23.976 fps, MPEG4-AVC, ~8250 kbps avg
Аудио#1 Rus: 48 kHz, AAC, 2/0 (L,R) ch, ~320 kbps avg
Аудио#2 Eng: 48 kHz, AC3, 3/2 (L,C,R,l,r) + LFE ch, ~384 kbps avg
General
Unique ID : 306606730905995805378168660214652828569 (0xE6AA4EF4A136EEA843B84FBBF7E77B99)
Complete name : Rick.and.Morty.S06E01.mkv
Format : Matroska
Format version : Version 4
File size : 1.39 GiB
Duration : 22 min 25 s
Overall bit rate mode : Variable
Overall bit rate : 8 883 kb/s
Encoded date : UTC 2022-09-05 16:02:35
Writing application : mkvmerge v51.0.0 ('I Wish') 64-bit
Writing library : libebml v1.4.0 + libmatroska v1.6.2

Video
ID : 1
Format : AVC
Format/Info : Advanced Video Codec
Format profile : [email protected]
Format settings : CABAC / 4 Ref Frames
Format settings, CABAC : Yes
Format settings, Reference fra : 4 frames
Codec ID : V_MPEG4/ISO/AVC
Duration : 22 min 25 s
Bit rate mode : Variable
Bit rate : 8 250 kb/s
Maximum bit rate : 12.4 Mb/s
Width : 1 920 pixels
Height : 1 080 pixels
Display aspect ratio : 16:9
Frame rate mode : Constant
Frame rate : 23.976 (24000/1001) FPS
Color space : YUV
Chroma subsampling : 4:2:0
Bit depth : 8 bits
Scan type : Progressive
Bits/(Pixel*Frame) : 0.166
Stream size : 1.28 GiB (92%)
Writing library : x264 core 157 r2965 861cec4
Encoding settings : cabac=1 / ref=4 / deblock=1:0:0 / analyse=0x3:0x113 / me=hex / subme=7 / psy=1 / psy_rd=1.00:0.00 / mixed_ref=1 / me_range=16 / chroma_me=1 / trellis=1 / 8x8dct=1 / cqm=0 / deadzone=21,11 / fast_pskip=1 / chroma_qp_offset=-2 / threads=34 / lookahead_threads=5 / sliced_threads=0 / nr=0 / decimate=1 / interlaced=0 / bluray_compat=0 / constrained_intra=0 / bframes=3 / b_pyramid=2 / b_adapt=1 / b_bias=0 / direct=1 / weightb=1 / open_gop=0 / weightp=2 / keyint=96 / keyint_min=96 / scenecut=40 / intra_refresh=0 / rc_lookahead=40 / rc=2pass / mbtree=1 / bitrate=8250 / ratetol=1.0 / qcomp=0.60 / qpmin=0 / qpmax=69 / qpstep=4 / cplxblur=20.0 / qblur=0.5 / vbv_maxrate=12375 / vbv_bufsize=6187 / nal_hrd=vbr / filler=0 / ip_ratio=1.40 / aq=1:1.00
Default : Yes
Forced : No
Color range : Limited
Color primaries : BT.709
Transfer characteristics : BT.709
Matrix coefficients : BT.709

Audio #1
ID : 2
Format : AAC LC
Format/Info : Advanced Audio Codec Low Complexity
Codec ID : A_AAC-2
Duration : 22 min 25 s
Bit rate : 317 kb/s
Channel(s) : 2 channels
Channel layout : L R
Sampling rate : 48.0 kHz
Frame rate : 46.875 FPS (1024 SPF)
Compression mode : Lossy
Stream size : 50.9 MiB (4%)
Language : Russian
Default : Yes
Forced : No

Audio #2
ID : 3
Format : AC-3
Format/Info : Audio Coding 3
Commercial name : Dolby Digital
Codec ID : A_AC3
Duration : 22 min 25 s
Bit rate mode : Constant
Bit rate : 384 kb/s
Channel(s) : 6 channels
Channel layout : L R C LFE Ls Rs
Sampling rate : 48.0 kHz
Frame rate : 31.250 FPS (1536 SPF)
Compression mode : Lossy
Stream size : 61.6 MiB (4%)
Language : English
Service kind : Complete Main
Default : No
Forced : No

Text #1
ID : 4
Format : UTF-8
Codec ID : S_TEXT/UTF8
Codec ID/Info : UTF-8 Plain Text
Duration : 22 min 11 s
Bit rate : 102 b/s
Frame rate : 0.291 FPS
Count of elements : 388
Stream size : 16.7 KiB (0%)
Title : English
Language : English
Default : No
Forced : No

Text #2
ID : 5
Format : UTF-8
Codec ID : S_TEXT/UTF8
Codec ID/Info : UTF-8 Plain Text
Duration : 22 min 15 s
Bit rate : 108 b/s
Frame rate : 0.440 FPS
Count of elements : 588
Stream size : 17.8 KiB (0%)
Title : SDH
Language : English
Default : No
Forced : No
скриншот  скриншот  скриншот  скриншот  
Внимание! Раздача ведётся путём добавления новых серий; при каждом добавлении создаётся новый торрент. Чтобы начать докачку новой серии, пользователям необходимо сделать следующее:
(1) остановить скачивание,
(2) удалить старый торрент у себя из клиента (старые серии удалять не надо),
(3) скачать новый торрент и запустить его у себя в клиенте вместо старого, при этом указать клиенту путь в старую папку куда и должно происходить скачивание новых серий.

Ваш клиент при этом должен произвести хеширование (проверку) старой папки (если не производит сам - помогите ему сделать это), и будет докачивать только те серии которых у вас ещё нет. Старые серии при этом не удаляются, а продолжают раздаваться!

Eсли вы уже удалили старые серии, то предотвратить повторную закачку старых серий можно, отжав галочку в соответствующих местах при запуске нового торрента. По возможности, желательно не удалять старые серии как можно дольше чтобы релизёр не столько продолжал раздавать старые серии, а смог сконцентрироваться на новых.



Скачать Рик и Морти через торрент https://i115.fastpic.org/big/2021/0909/57/8c5472258a378c373716fe624e797657.png Скачать, смотреть онлайн Рик и Морти бесплантно в хорошем качестве Описание: Анимационное шоу для взрослых, в лучших традициях интеллектуального абсурда. Морти – самый обычный 14-летний подросток, который ... 10 10 5
Торрент: Зарегистрирован [2022-09-19 17:59] · скачан: 25 раз
Статус: √ проверено
Размер: 4.41 GB
Как cкачать? Как скачать Рик и Морти через торрент | UTorrent

% Раздел Тема Автор DL S | L
Мультсериалы [ 4.38 GB ] Рик и Морти / Rick And Morty / Сезон: 6 / Серии: 1-3 из 10 | MVO | DLRip 1080p bober100 Скачать
1 | 1
Мультсериалы [ 17.97 GB ] Рик и Морти / Rick And Morty / Сезон: 1-5 / Серии: 1-51 из 51 | | DLRip bober100 Скачать
2 | 0
Мультсериалы [ 5.33 GB ] Рик и Морти / Rick And Morty / Сезон: 5 / Серии: 1-10 из 10 | | DLRip 720p bober100 Скачать
4 | 0
Мультсериалы [ 8.27 GB ] Рик и Морти / Rick And Morty / Сезон: 5 / Серии: 1-10 из 10 | | DLRip 1080p bober100 Скачать
3 | 1
Мультсериалы [ 3.83 GB ] Рик и Морти / Rick And Morty / Сезон: 4 / Серии: 1-10 из 10 | | 720p bober100 Скачать
1 | 0
Мультсериалы [ 2.64 GB ] Рик и Морти / Rick And Morty / Сезон: 4 / Серии: 1-4 из 10 | TVShows | 1080p bober100 Скачать
1 | 0
Мультсериалы [ 6.17 GB ] Рик и Морти / Rick And Morty / Сезон: 4 / Серии: 1-10 из 10 | | DLRip 1080p bober100 Скачать
1 | 0

28-11-2019 20:33  

Отключить вcю реклaмy на сайте

    Дорогой пользователь! Огромная просьба, поблагодарите релизера, оцените раздачу и оставьте свои комментарий, если Вы скачали Рик и Морти через торрент бесплатно!!
    Комментировать посты могут только пользователи прошедшие не сложную регистрацию
    Показать сообщения:    


    Рик и Морти через торрент
    Скачать бесплатно Рик и Морти
    Рик и Морти скачать торрент
    Рик и Морти смотреть онлайн
    Cкачать фильм Рик и Морти бесплатно
    Рик и Морти скачать торрент в хорошем качестве
    Рик и Морти смотреть онлайн бесплатно в хорошем качестве
    Вы не можете начинать темы
    Вы не можете отвечать на сообщения
    Вы не можете редактировать свои сообщения
    Вы не можете удалять свои сообщения
    Вы не можете голосовать в опросах
    Вы не можете прикреплять файлы к сообщениям
    Вы можете скачивать файлы